English French Russian Japanese Arabic

ประกาศ :: งดอัพเดต และเผยแพร่ภาพยนต์ของบริษัท M Pictures ตามหนังสือขอความร่วมมือไม่ละเมิดลิขสิทธิ์ หมายเหตุ ... คลิปวิดีโอทั้งหมดบนเว็บไซต์นี้เป็นเพียงการนำลิงค์มาจากเว็บอัพโหลดคลิปเท่านั้น vdo ทั้งหมดถูกเก็บอยู่ที่เว็บไซต์บริการฝากไฟล์วิดีโอเหล่านั้นตามที่มีลิงค์ชี้ไปโปรดทราบว่าทางผู้ดูแลเว็บไซต์แห่งนี้เพียงไปพบลิงค์ จากเว็บเหล่านั้นและนำมารวบรวมไว้เป็นหมวดหมู่ เพียงเพื่อให้ผู้ใช้สามารถค้นหาคลิปต่างๆเหล่านั้นได้ง่ายขึ้นเราไม่ได้เป็นผู้อัพโหลดไฟล์เหล่านั้น และหากท่านพบวิดีโออันใดที่ละเมิดลิขสิทธิ์โปรดแจ้งผู้ดูแลเว็บลบคลิปดังกล่าวออกจากเว็บแห่งนี้ต่อไป ...

[ชนโรง] Olympus Has Fallen (2013) - ฝ่าวิกฤติ วินาศกรรมทำเนียบขาว [พากย์ไทยโรง]






Olympus Has Fallen (2013) - ฝ่าวิกฤติ วินาศกรรมทำเนียบขาว | 1.39 GB

เรื่องย่อ
              กลุ่มหัวรุนแรงที่ผ่านการฝึกฝนมาอย่างดีและอาวุธครบมือกลุ่มเล็กๆ ได้ทำการอุกอาจเข้ายึดทำเนียบขาวกลางวันแสกๆ พวกเขาแทรกซึมเข้าไปในทำเนียบและจับตัวประธานาธิบดีเบนจามิน แอชเชอร์ (แอรอน เอ็คฮาร์ท) และเจ้าหน้าที่ของเขาเป็นตัวประกันภายในหลุมหลบภัยใต้ดินของประธานาธิบดี ที่มีการคุ้มกันอย่างแน่นหนา ขณะที่มีการต่อสู้กันอย่างดุเดือดที่ลานสนามหญ้าหน้าทำเนียบขาว ไมค์ แบนนิ่ง (เจอราร์ด บัตเลอร์) อดีตเจ้าหน้าที่หน่วยรักษาความปลอดภัย ก็กระโจนเข้าร่วมวงด้วย ก่อนที่เขาจะพบว่าเขาเป็นสมาชิกหน่วยรักษาความปลอดภัยประธานาธิบดีคนสุดท้ายที่ยังมีชีวิตอยู่ในอาคารที่ถูกยึดหลังนี้

แบนนิ่งใช้การฝึกฝนอย่างหนักและความรู้อย่างละเอียดเกี่ยวกับที่พำนักของประธานาธิบดีในการเป็นหูเป็นตาให้กับอัลลัน ทรัมบุล (มอร์แกน ฟรีแมน) ผู้รักษาการแทนประธานาธิบดีและที่ปรึกษาของเขา เมื่อผู้บุกรุกเริ่มสังหารตัวประกันและขู่ที่จะฆ่าตัวประกันเพิ่มเติมหากไม่มีการทำตามข้อเรียกร้องที่สุดโต่งของพวกเขา แบนนิ่งก็พยายามอย่างสุดความสามารถที่จะหาตัวลูกชายของประธานาธิบดีที่ซ่อนตัวอยู่ที่ไหนซักแห่งในอาคารแห่งนี้และช่วยชีวิตประธานาธิบดีเอาไว้ให้ได้ก่อนที่ผู้ก่อการร้ายจะใช้แผนการขั้นสุดท้ายที่น่าสะพรึงกลัวของพวกเขา เมื่อจำนวนศพมากขึ้นและเวลาเหลือน้อยลงเรื่อยๆ สิ่งที่ปรากฏชัดคือแบนนิงเป็นความหวังเพียงหนึ่งเดียวที่จะทำให้อเมริการอดพ้นจากหายนะได้


General
Complete name                    : C:\Documents and Settings\IT\My Documents\Downloads\Compressed\Olympus.Has.Fallen.2013.CAMRip_Clubmovie12.blogspot.com.avi
Format                           : AVI
Format/Info                      : Audio Video Interleave
Format profile                   : OpenDML
Format settings                  : rec
File size                        : 1.39 GiB
Duration                         : 1h 50mn
Overall bit rate                 : 1 807 Kbps
Writing application              : AVI-Mux GUI 1.17.8, Aug 30 2008  12:36:58

Video
ID                               : 0
Format                           : MPEG-4 Visual
Format profile                   : Advanced Simple@L5
Format settings, BVOP            : 2
Format settings, QPel            : No
Format settings, GMC             : No warppoints
Format settings, Matrix          : Default (H.263)
Muxing mode                      : Packed bitstream
Codec ID                         : XVID
Codec ID/Hint                    : XviD
Duration                         : 1h 50mn
Bit rate                         : 1 610 Kbps
Width                            : 720 pixels
Height                           : 304 pixels
Display aspect ratio             : 2.35:1
Frame rate                       : 24.000 fps
Color space                      : YUV
Chroma subsampling               : 4:2:0
Bit depth                        : 8 bits
Scan type                        : Progressive
Compression mode                 : Lossy
Bits/(Pixel*Frame)               : 0.306
Stream size                      : 1.24 GiB (89%)
Writing library                  : XviD 1.2.1 (UTC 2008-12-04)

Audio
ID                               : 1
Format                           : AC-3
Format/Info                      : Audio Coding 3
Mode extension                   : CM (complete main)
Codec ID                         : 2000
Duration                         : 1h 50mn
Bit rate mode                    : Constant
Bit rate                         : 192 Kbps
Channel(s)                       : 2 channels
Channel positions                : Front: L R
Sampling rate                    : 48.0 KHz
Bit depth                        : 16 bits
Compression mode                 : Lossy
Stream size                      : 151 MiB (11%)
Alignment                        : Aligned on interleaves
Interleave, duration             : 64 ms (1.54 video frames)
Interleave, preload duration     : 192 ms
Title                            : Olympus.Has.Fallen











ชื่อไฟล์สำหรับคนตั้งชื่อไม่เป็นนะครับตั้งตามนี้ไม่งั้นแตกไฟล์ไม่ได้นะครับ
1.   Olympus.part1.rar
2.   Olympus.part2.rar
3.   Olympus.part3.rar


PASS : http://clubmovie12.blogspot.com/

ปล.  -- Winrar ใส่ Recovery Record 5% ทุกไฟล์ครับ --






แตกไฟล์ โดยใช้โปรแกรม 7-Zip

เม้นขอบคุณให้กำลังบ้างก็ดีนะ......

ช่วยกันบริจากสนับสนุนบล๊อกเราหน่อยก็ดีนะครับด้วยบัตรทูมันนี่




Popular Posts

คลังบทความของบล็อก

ขับเคลื่อนโดย Blogger.
 
Support : Your Link | Your Link | Your Link
Copyright © 2013. inwseedload โหลดหนังฟรี,ดาวน์โหลดหนัง,ดูหนังฟรี,โหลดหนังใหม่ - All Rights Reserved
Template Created by Creating Website Published by Mas Template
Proudly powered by Sinhala MP3